View Single Post
Old Jan 09, 2011, 02:43 PM
deepinside is offline
Find More Posts by deepinside
Registered User
Joined Jan 2011
27 Posts
Quote:
Originally Posted by jantares View Post
I wonder if your 808HD only be unblocked and able to upload new firmware with the date and time. Do you still record video in over 10000kbps?
Have you used the firmware to remove the date and time?
Yes, I used the firmware given in this thread. And yes, I still record with over 10000kbps. MediaInfo gives me the following on a new sample clip

Code:
General
Complete name                    : G:\PTDC0002.MOV
Format                           : MPEG-4
Format profile                   : QuickTime
Codec ID                         : qt  
File size                        : 28.1 MiB
Duration                         : 22s 0ms
Overall bit rate                 : 10.7 Mbps
Encoded date                     : UTC 2004-01-01 00:00:00
Tagged date                      : UTC 2004-01-01 00:00:00

Video
ID                               : 1
Format                           : AVC
Format/Info                      : Advanced Video Codec
Format profile                   : Main@L5.0
Format settings, CABAC           : Yes
Format settings, ReFrames        : 1 frame
Codec ID                         : avc1
Codec ID/Info                    : Advanced Video Coding
Duration                         : 22s 0ms
Bit rate mode                    : Variable
Bit rate                         : 10.2 Mbps
Width                            : 1 280 pixels
Height                           : 720 pixels
Display aspect ratio             : 16:9
Frame rate mode                  : Constant
Frame rate                       : 30.000 fps
Color space                      : YUV
Chroma subsampling               : 4:2:0
Bit depth                        : 8 bits
Scan type                        : Progressive
Bits/(Pixel*Frame)               : 0.369
Stream size                      : 26.8 MiB (95%)
Language                         : English
Encoded date                     : UTC 2004-01-01 00:00:00
Tagged date                      : UTC 2004-01-01 00:00:00

Audio
ID                               : 2
Format                           : PCM
Format settings, Endianness      : Little
Format settings, Sign            : Signed
Codec ID                         : sowt
Duration                         : 22s 0ms
Bit rate mode                    : Constant
Bit rate                         : 512 Kbps
Channel(s)                       : 1 channel
Sampling rate                    : 32.0 KHz
Bit depth                        : 16 bits
Stream size                      : 1.34 MiB (5%)
Language                         : English
Encoded date                     : UTC 2004-01-01 00:00:00
Tagged date                      : UTC 2004-01-01 00:00:00
deepinside is offline Find More Posts by deepinside